#TITLE:Alienating our Audience;
#SUBTITLE:;
#ARTIST:Mindless Self Indulgence;
#TITLETRANSLIT:;
#SUBTITLETRANSLIT:;
#ARTISTTRANSLIT:;
#CREDIT:;
#BANNER:alientating-bn.jpg;
#BACKGROUND:alientating.jpg;
#LYRICSPATH:;
#CDTITLE:cdtitle.PNG;
#MUSIC:Mindless Self Indulgence - Alienating our Audience.mp3;
#OFFSET:-0.128;
#SAMPLESTART:84.980;
#SAMPLELENGTH:10.660;
#SELECTABLE:YES;
#BPMS:0.000=200.000;
#STOPS:;
#BGCHANGES:;
// cache tags:
#FIRSTBEAT:0.000;
#LASTBEAT:404.000;
#SONGFILENAME:Songs/nhac/Alienating our Audience/aoa.sm;
#HASMUSIC:1;
#HASBANNER:1;
#MUSICLENGTH:123.514;
// end cache tags

//---------------dance-single - GFX by Exige----------------
#NOTES:
     dance-single:
     GFX by Exige:
     Hard:
     13:
     1.000,1.000,1.000,0.227,1.000,872.000,266.000,28.000,0.000,10.000:

1100
0000
0000
0000
,
0110
0000
0000
0000
,
1100
0000
0000
0000
,
0110
0000
0000
0000
,
1010
0000
0001
0000
0001
0000
0110
0000
1100
0000
0110
0000
0001
0010
0100
1000
,
0110
0000
0010
0000
0100
0000
0011
0000
1010
0000
0011
0000
1000
0100
0010
0001
,
1010
0000
0010
0000
0100
0000
0101
0000
0110
0000
1010
0000
0001
0100
0010
1000
,
0110
0000
0001
0000
1000
0000
0101
0000
0011
0000
0101
0000
1000
0010
0100
0001
,
1010
0000
0010
0000
0100
0000
0101
0000
0011
0000
0101
0000
1000
0100
0010
0001
,
1100
0000
0001
0000
0100
0000
1100
0000
1010
0000
1100
0000
0001
0010
0100
1000
,
0110
0000
0001
0000
0100
0000
1010
0000
0101
0000
1010
0000
0100
0010
0001
1000
,
0110
0000
0010
0000
1000
0000
0101
0000
1010
0000
0101
0000
1000
0100
0010
0001
,
1000
0100
1000
0010
0001
0010
0001
1000
0100
1000
0100
0001
1000
0010
0100
0001
,
0010
0100
1000
0001
1000
0010
0100
0001
0010
1000
0100
0001
0100
0010
1000
0001
,
1000
0010
0100
0001
1000
0010
0100
0001
1000
0010
0100
0001
0010
0100
0010
0001
,
0010
0100
1000
0001
1000
0010
0100
0010
0100
0010
1000
0001
0010
1000
0100
0001
,
0100
0100
0110
0110
0000
0000
0110
0000
,
0001
0001
0101
0101
0000
0000
0101
0000
,
1000
1000
1100
1100
0000
0000
1100
0000
,
0100
0010
0100
0010
0001
1000
0001
1000
0001
0010
0001
0010
0100
1000
0100
1000
,
0010
0010
1010
1010
0000
0000
1010
0000
,
0010
0010
0110
0110
0000
0000
0110
0000
,
0001
0001
0101
0101
0000
0000
0101
0000
,
0001
0010
0100
1000
0001
0010
0100
1000
0001
0010
0100
1000
0001
0010
0100
1000
,
0110
0000
0110
0000
0001
0010
0100
1000
0100
0010
0001
0010
0100
1000
0100
0010
,
0001
0010
0100
1000
0110
0000
0011
0000
0110
0000
1010
0000
1100
0000
0101
0000
,
1010
0100
0010
0001
0010
0100
1000
0100
0010
0001
0010
0100
1000
0100
0010
0001
,
0010
0100
1000
0100
0110
0000
0101
0000
0110
0000
1100
0000
1010
0000
0101
0000
,
0011
0100
1000
0001
0010
0001
1000
0100
1000
0001
0010
0001
1000
0100
1000
0001
,
0010
0001
1000
0100
0110
0000
1010
0000
0110
0000
0011
0000
0101
0000
1100
0000
,
0101
0000
0000
0000
0100
0000
0000
0000
0000
0000
1010
0000
0100
0010
0100
0000
,
0101
0000
0000
0000
0010
0000
0000
0000
0000
0000
1010
0000
0010
0001
0010
0000
,
1010
0000
0001
0000
0100
0000
1000
0000
0100
0000
0010
0000
0001
0010
1100
0000
,
0011
0000
1000
0000
0100
0000
0011
0000
0110
0000
1000
0000
0100
0010
0101
0000
,
1100
0000
0010
0000
0001
0000
0100
0000
0001
0000
1000
0000
0010
1000
0101
0000
,
1010
0000
0100
0000
0001
0000
1000
0000
0001
0000
0100
0000
0001
1000
0011
0000
,
0101
0000
1000
0000
0010
0000
0001
0000
0010
0000
0100
0000
1000
0100
0011
0000
,
1100
0000
0001
0000
0010
0000
1100
0000
0110
0000
0001
0000
0010
0100
1000
0000
,
0110
0000
0000
0000
0100
0000
0000
0000
1000
0000
0000
0000
0100
0000
0000
0000
0011
0000
0000
0000
0100
0000
0000
0000
0001
0010
0001
0010
0001
0000
0000
0000
,
0001
0000
0000
0000
0110
0000
0000
0000
1100
0000
0000
0000
0011
0000
0000
0000
1100
0000
0000
0000
0101
0000
0000
0000
1000
0100
1000
0100
1000
0000
0000
0000
,
0110
0000
0000
0000
0010
0000
0000
0000
0001
0000
0000
0000
0010
0000
0000
0000
1100
0000
0000
0000
0010
0000
0000
0000
1000
0100
1000
0100
1000
0000
0000
0000
,
1000
0000
0000
0000
0110
0000
0000
0000
0011
0000
0000
0000
1100
0000
0000
0000
0011
0000
0000
0000
1010
0000
0000
0000
0001
0010
0001
0010
0001
0000
0000
0000
,
1100
0000
0010
0000
0010
0000
1001
0000
0101
0000
1001
0000
0010
1000
0001
0100
,
1001
0000
1000
0000
0001
0000
1010
0000
1100
0000
1010
0000
0100
0001
1000
0010
,
1100
0000
1000
0000
0001
0000
0011
0000
1001
0000
1100
0000
0010
0001
1000
0100
,
1001
0000
0010
0000
0100
0000
0011
0000
1010
0000
0011
0000
0100
1000
0001
0010
,
1100
0000
1000
0000
0001
0000
0011
0000
1010
0000
0011
0000
0100
0001
1000
0010
,
0101
0000
0010
0000
0001
0000
0101
0000
1100
0000
0101
0000
0010
1000
0001
0100
,
1001
0000
0010
0000
0001
0000
1100
0000
0011
0000
1100
0000
0001
1000
0010
0100
,
1001
0000
1000
0000
0100
0000
0011
0000
1100
0000
0011
0000
0100
0001
1000
0010
,
0100
1000
0100
0001
1000
0100
1000
0010
1000
0100
0001
0010
1000
0100
0001
0010
,
1000
0100
1000
0001
0100
0010
1000
0001
0100
0010
0001
1000
0010
0100
1000
0001
,
0010
0100
0010
0001
1000
0100
1000
0001
0010
1000
0100
0001
1000
0010
0100
0001
,
0100
0010
1000
0010
0001
0100
0010
0001
0100
1000
0100
0001
0100
0010
1000
0100
,
0001
0001
1001
1001
0000
0000
1001
0000
,
0010
0010
0011
0011
0000
0000
0011
0000
,
0100
0100
0101
0101
0000
0000
0101
0000
,
0001
1000
0001
1000
0010
0100
0010
0100
0010
1000
0010
1000
0001
0100
0001
0100
,
1000
1000
1100
1100
0000
0000
1100
0000
,
1000
1000
1001
1001
0000
0000
1001
0000
,
0010
0010
0011
0011
0000
0000
0011
0000
,
0010
1000
0001
0100
0010
1000
0001
0100
0010
1000
0001
0100
0010
1000
0001
0100
,
1001
0000
1001
0000
0010
1000
0001
0100
0001
1000
0010
1000
0001
0100
0001
1000
,
0010
1000
0001
0100
1001
0000
1010
0000
1001
0000
1100
0000
0101
0000
0011
0000
,
1100
0001
1000
0010
1000
0001
0100
0001
1000
0010
1000
0001
0100
0001
1000
0010
,
1000
0001
0100
0001
1001
0000
0011
0000
1001
0000
0101
0000
1100
0000
0011
0000
,
1010
0001
0100
0010
1000
0010
0100
0001
0100
0010
1000
0010
0100
0001
0100
0010
,
1000
0010
0100
0001
1001
0000
1100
0000
1001
0000
1010
0000
0011
0000
0101
0000
,
0202
0000
0000
0000
0000
2323
0000
0000
,
3232
0000
0000
0000
0000
2323
0000
0000
,
3232
0000
0000
0000
0000
2323
0000
0000
,
3232
0000
0000
0000
0000
2323
0000
0000
,
3131
0000
0000
0000
0000
0000
0000
0000
0000
0000
0000
0000
0000
0000
0100
0100
,
0110
0000
0000
0000
0000
0000
0000
0000
0000
0000
0000
0000
0000
0000
1000
1000
,
1010
0000
0000
0000
0000
0000
0000
0000
0000
0000
0000
0000
0000
0000
0001
0001
,
0101
0011
0101
0011
0101
0011
0101
0011
,
0110
0000
0000
0000
0000
0000
0000
0000
0000
0000
0000
0000
0000
0000
1000
1000
,
1010
0000
0000
0000
0000
0000
0000
0000
0000
0000
0000
0000
0000
0000
0001
0001
,
0101
0000
0000
0000
0000
0000
0000
0000
0000
0000
0000
0000
0000
0000
0100
0100
,
0110
0011
0110
0011
0110
0011
0110
0011
,
0110
0001
0100
0001
1000
0010
1000
0001
0100
0001
1000
0010
1000
0001
0100
0001
,
1000
0010
1000
0001
0110
0000
1010
0000
0110
0000
0101
0000
0110
0000
1100
0000
,
0011
0100
1000
0100
0010
0001
0010
0100
1000
0100
0010
0001
0010
0100
1000
0100
,
0010
0001
0010
0100
1100
0000
0110
0000
0011
0000
0110
0000
1100
0000
1010
0000
,
0101
0010
1000
0010
0100
0001
0100
0010
1000
0010
0100
0001
0100
0010
1000
0010
,
0100
0001
1100
0000
1100
0000
0110
0000
0110
0000
0011
0000
0011
0000
1001
0000
,
2002
0000
0000
0000
,
0000
0000
0000
0000
,
3223
0000
0000
0000
0000
0000
0000
0000
0000
0000
0000
0000
0000
0000
0000
0000
0000
0000
0000
0000
0000
0000
0000
0000
0000
0000
0000
0000
0000
0000
0000
0330
,
2020
0000
0000
0000
0000
0000
0000
0000
0000
0000
0000
0000
0000
0000
0000
0000
0000
0000
0000
0000
0000
0000
0000
0000
0000
0000
0000
0000
0000
0000
0000
3030
,
0022
0000
0000
0000
,
0000
0000
0000
0000
,
2233
0000
0000
0000
0000
0000
0000
0000
0000
0000
0000
0000
0000
0000
0000
0000
0000
0000
0000
0000
0000
0000
0000
0000
0000
0000
0000
0000
0000
0000
0000
3300
,
0220
0000
0000
0000
0000
0000
0000
0000
0000
0000
0000
0000
0000
0000
0000
0000
0000
0000
0000
0000
0000
0000
0000
0000
0000
0000
0000
0000
0000
0000
0000
0330
,
0110
0000
0000
0000
0101
0000
0000
0000
0110
0000
0000
0000
1000
0000
0000
0000
0110
0000
0000
0000
0001
0000
0000
0000
0010
0100
0010
0100
0010
0000
0000
0000
,
1010
0000
0000
0000
0100
0000
0000
0000
0011
0000
0000
0000
1010
0000
0000
0000
0001
0000
0000
0000
1100
0000
0000
0000
0010
0100
0010
0100
0010
0000
0000
0000
,
0110
0000
0000
0000
1100
0000
0000
0000
0110
0000
0000
0000
1000
0000
0000
0000
0110
0000
0000
0000
0001
0000
0000
0000
1000
0010
1000
0010
1000
0000
0000
0000
,
0011
1000
0100
0010
0110
0000
0000
0000
,
1001
0000
0000
0000
1100
0000
0000
0000
1001
0000
0000
0000
0010
0000
0000
0000
1001
0000
0000
0000
0100
0000
0000
0000
0001
1000
0001
1000
0001
0000
0000
0000
,
0011
0000
0000
0000
1000
0000
0000
0000
0101
0000
0000
0000
0011
0000
0000
0000
0100
0000
0000
0000
1010
0000
0000
0000
0001
1000
0001
1000
0001
0000
0000
0000
,
1001
1010
1001
0010
1001
0100
0010
0001
,
0110
0000
0000
0000
;
